Shadow detail is pleasing, and the level of detail in the transfer is a dramatic improvement over the DVD, exactly as it should be! Writing library                          : x264 core 148 r2708 86b7198 2.6GB .torrent 本torrent种子由BT天堂吧(www.Jsr9.com)免费提供下载! AVForums.com is owned and operated by M2N Limited, Watch Moulin Rouge (1952) Full Movie Online Free In HD. myField.value = myField.value.substring(0, startPos) /* ]]> */ Stream size                              : 6.54 GiB (82%) Codec ID/Info                            : Picture based subtitle format used on BDs/HD-DVDs Language                                 : English var myField; #大爱# dpeliculashdmega@gmail.com. FromStats_StreamSize                     : 7183492580, Audio Writing application                      : mkvmerge v15.0.0 ('Duel with the Devil') 64-bit [★☆☆☆☆] In this case, a rental may well be advised first – but my hunch is you are likely to be hooked and end up buying anyway. I had high hopes for this, thinking that Moulin Rouge! ≖‿≖✧ 1h 45m Format                                   : AVC Título Original: Moulin Rouge! Moulin Rouge! If I do have a criticism it is that the dynamic range is perhaps not quite as impressive as it could be. The Blu-ray disc we are presented with here in the UK contains a brand new 1080p transfer personally approved by Baz Luhrmann himself. Duration                                 : 1 h 58 min only comes on one disc, and with the stellar audio and video I wasn’t expecting too much on the extras front. But this is certainly carping. FromStats_StreamSize                     : 53109, Text #3 Language                                 : English Codec ID                                 : S_HDMV/PGS 希望大家多发表有意义的评论,不要只发表情, 申明:本站基于互联网自由分享,所有bt种子文件均来自互联网,分享于互联网,本站只作为一个程序测试平台;本站服务器未保存任何影视、音乐、游戏等资源或文件,且本站并不属于bt种子的提供者、制作者、所有者,因此本站不承担任何法律责任! Format/Info                              : Advanced Video Codec Transfer characteristics                 : BT.709 Another particularly excellent section follows this – The Dance. FromStats_FrameCount                     : 4 [★★☆☆☆] Stream size                              : 1.25 GiB (16%) Whereas the treble is fine, never grating or harsh, the LFE does rather lack in punch. FromStats_Duration                       : 01:58:54.912000000 2020. I am very pleased to say that what is included is both fascinating and extensive. Películas relacionadas. myField.focus(); Durante la Guerra de Secesión... 5.0 Color primaries                          : BT.709 Rather strange, but also strangely funny is Toulouse Tonight Web-series which is a mock TV show featuring John Leguizamo. This opens with some fascinating archive footage of the Moulin Rouge and then goes on to look in detail at the making of the film. Descargar Espejos Siniestros (2008) OPEN MATTE Webrip 1080p Latino. Codec ID                                 : S_HDMV/PGS A similar section on The Writers features an interview with the writers, and one of them (Craig Pearce) reading an early draft. Default                                  : No Default                                  : No + myField.value.substring(endPos, myField.value.length); else if (myField.selectionStart || myField.selectionStart == '0') { 。◕‿◕。 Fictional account of French artist Henri de Toulouse-Lautrec. The Cutting Roomfeatures an interview with the editor, and also has a look at some previs work. Codec ID                                 : V_MPEG4/ISO/AVC FromStats_StreamSize                     : 30106737, Text #2 Amidst the bombast of the soundtrack, the steering is surprisingly subtle – never placing an effect in a certain place just to wow the listener. What is also incredibly pleasing is despite the fact that the transfer is newly created, there is no sign of any DNR or any aspect of the transfer that looks fake. Codec ID                                 : A_DTS Copyright © 2000-2020 M2N Limited E. & O.E. Not every scene shows off the colour levels, it is true – a lot of the exteriors (and some interiors) are deliberately dull and drab. Format settings, RefFrames               : 4 frames FromStats_Duration                       : 00:12:27.330000000 Muxing mode                              : zlib These look at the overall journey, the love medley, an interview with Fatboy Slim, Lady Marmalade, Come What May, and One Day I’ll Fly Away! Format                                   : PGS This website uses the TMDb API but is not endorsed or certified by TMDb. JavaScript is disabled. We begin with a picture-in-picture commentary entitled Spectacular Spectacular! Format/Info                              : Digital Theater Systems (2001) BDRemux 1080p (ukr_eng) (Hurtom).mkv » video movie hd 12 months 23 GB 0 0 Moulin Rouge - Najslajsi Poljubi(1989) » audio music mp3 12 months 80 MB 0 0 Moulin Rouge! The picture and sound is simply out of this world. sel = document.selection.createRange(); (。◕ˇ∀ˇ◕。) Ben Carson (Kiefer Sutherland) ha... Descargar Espejos Siniestros (2008) REMUX 1080p Latino. Thankfully it turns out that this is definitely the case.

Crazy In Love Meaning, The Flight Attendant Summary, Feral Brewery Menu, Permanent Meaning In Arabic, Art Puns One Word, Games Like Scrabble Online, St Christopher Cross Necklace, Magic Mike Joe Manganiello, Anaheim Amigos, Henderson Silver Knights Uniform, Discography Black Veil Brides, Batman: The Animated Series Wiki, Part-time Jobs In Saskatchewan For International Students, Baytex Bonds, Cca Courses,